#TITLE:Crash;
#SUBTITLE:;
#ARTIST:m1dy;
#TITLETRANSLIT:;
#SUBTITLETRANSLIT:;
#ARTISTTRANSLIT:;
#CREDIT:;
#BANNER:crash-banner.png.png;
#BACKGROUND:crash-bg.png.png;
#LYRICSPATH:;
#CDTITLE:blindreper1179.png;
#MUSIC:05. Crash.mp3;
#OFFSET:0.020;
#SAMPLESTART:25.740;
#SAMPLELENGTH:12.000;
#SELECTABLE:YES;
#DISPLAYBPM:307.000;
#BPMS:0.000=307.000,305.000=614.000,308.500=307.000;
#STOPS:0.000=2.500
,20.021=0.120
,247.000=0.140
,305.000=0.060
,305.500=0.060
,306.000=0.060
,306.500=0.060
,307.000=0.060
,307.500=0.060
,308.000=0.060
,491.021=1.380
;
#BGCHANGES:;
// cache tags:
#FIRSTBEAT:4.000;
#LASTBEAT:702.000;
#SONGFILENAME:Songs/Music V.I.P ^_^/crash/Crash.sm;
#HASMUSIC:1;
#HASBANNER:1;
#MUSICLENGTH:144.620;
// end cache tags

//---------------dance-single - ----------------
#NOTES:
     dance-single:
     :
     Challenge:
     13:
     1.000,1.000,1.000,0.173,1.000,1372.000,500.000,25.000,0.000,127.000:
0000
0000
0000
0000
,
1001
0011
0101
1001
1010
1100
1001
0101
,
1100
0110
0101
0011
,
0101
0000
0000
0000
0000
0000
0000
0000
1001
0000
0000
0000
0000
0000
0000
0000
1100
0001
0010
0100
1000
0001
0010
0100
1000
0001
0010
0100
1000
0001
0010
0100
,
1000
1010
1001
0011
,
0110
0000
0000
0000
0000
0000
1000
0000
0000
0100
0000
1000
0000
0000
0000
0000
,
1022
1000
1000
0000
0000
1000
0000
1000
0000
0000
1000
0000
1133
0000
0000
0000
,
0110
0000
0000
0000
0000
0000
0000
0000
1100
0000
0000
0000
0000
0000
0000
0000
1001
0000
0000
0000
0000
0000
0000
0000
0011
1000
0100
0010
0001
1000
0100
0010
,
0001
1000
0100
0010
0001
1000
0100
0010
0001
1000
0100
0010
0001
1000
0100
0010
0001
1000
0100
0010
0001
1000
0100
0010
0001
0000
0000
0000
0000
0000
0000
0000
,
1000
0000
0100
0000
0010
0000
0001
0000
0010
0000
0100
0000
1000
0100
1000
0100
1000
0100
1000
0100
1000
0100
1000
0100
1000
0001
0001
0001
0001
0001
0001
0001
,
0001
1000
0100
0010
0001
1000
0100
0010
1001
0000
0000
0000
1100
0000
0000
0000
,
1010
0000
0110
0101
0011
1001
1010
0110
,
0011
0022
0000
0000
0000
0000
0033
2200
,
0000
0010
3301
0010
0100
1000
0100
0010
,
0001
0000
0010
0000
0100
1000
0100
0000
0010
0000
0001
0000
0001
0000
0002
0000
,
0000
1003
0100
0010
0001
0010
0100
1000
,
0100
0000
0010
0000
0001
0010
0100
0000
1000
0000
0100
0000
0100
0000
0200
0000
,
0000
0310
0001
0100
1000
0010
0001
0100
,
1000
0000
0010
0000
0001
0000
0100
1000
0010
0000
0001
0000
0001
0000
0002
0000
,
0000
0013
1000
0001
0010
1000
0100
0001
,
0010
1000
0110
0001
0110
1000
0110
0000
,
0110
0000
0011
0000
1000
0100
0010
0100
,
1000
0000
0100
0000
0010
0000
0100
1000
0100
0000
0010
0000
0100
0000
0100
0000
,
0200
0000
0301
0010
0100
0010
0001
0010
,
0100
0000
0010
0000
0001
0000
0010
0100
0010
0000
0001
0000
0010
0000
0010
0000
,
0020
0000
0031
0010
0100
1000
0100
0010
,
0001
0000
0010
0000
0100
0000
1000
0000
0100
0010
0001
0000
0010
0000
0100
0000
,
1000
2000
0000
3110
0001
0000
0001
0000
,
0001
0001
0202
0000
,
0000
0303
2110
0011
,
0101
0110
0011
0101
,
0110
0011
0101
0110
,
0011
0101
0110
0011
,
3101
0000
1100
1001
0101
0010
1010
1000
,
0101
0010
0110
0100
1001
0001
0011
0100
,
1100
0001
1010
0100
0101
1000
1100
0010
,
0101
0000
0000
0000
0010
0000
0000
0000
1100
0000
0000
0000
0000
0000
0000
0000
0011
1000
0100
0010
0001
1000
0100
0010
0001
1000
0100
0010
0001
1000
0100
0010
,
0001
1000
0100
0010
0001
1000
0100
0010
0001
1000
0100
0010
0001
1000
0100
0010
0001
0000
0000
0000
0000
0000
0000
0000
2110
0000
0000
0000
0000
0000
0000
0000
,
0011
0101
0110
0011
,
0110
0000
0011
0000
0101
3000
2011
0000
,
0101
0110
0011
0101
,
0110
0000
0011
0000
0011
3101
2110
0000
,
0101
0011
0110
0101
,
0011
0101
0011
0110
,
0101
0011
0101
0011
,
0002
3000
0003
0002
0000
0003
1010
0100
,
1100
0001
0011
1000
0110
0100
1010
0001
,
0101
0010
0011
1000
0110
0010
1100
0001
,
0110
0100
0011
1000
1100
0010
0110
0100
,
1001
0001
0011
1000
1010
0100
1100
0101
,
1010
0100
0101
1000
1010
0001
0011
0100
,
1100
0010
0110
0001
0011
1000
0101
0100
,
1010
0010
0101
0100
0011
1000
1100
0001
,
0101
0010
0011
0100
1010
0001
0011
0110
,
1100
1000
0110
0100
1001
0010
1100
0100
,
0011
0001
0110
1000
1001
0010
0110
0100
,
0101
0001
0011
0010
1100
1000
0110
0100
,
1001
0001
0110
0100
1001
0010
0110
1011
,
0110
1000
1001
0010
1010
0100
0101
0001
,
1100
0010
1010
1000
0011
0100
1100
0010
,
1001
0110
0011
1001
1100
0110
1001
0101
,
1010
0011
0110
1100
0101
0110
1001
0000
,
1100
0001
0110
1000
1001
0100
1100
0010
,
0110
1000
0011
0010
1001
0100
0110
0001
,
0011
1000
0101
0010
1010
0100
0011
0001
,
0101
0100
0011
1000
0110
0010
1100
0011
,
1100
0100
1010
0001
0101
0010
1100
0001
,
1010
0100
1100
1000
0110
0100
0011
0001
,
0110
0100
1100
0010
1001
0100
0110
1000
,
1100
0001
0101
0010
0011
0100
0101
1000
,
1100
1001
0110
0100
0011
0001
1100
0010
,
0101
0100
0011
1000
0101
0100
1001
1000
,
1100
0010
1010
0001
1001
0100
0011
0010
,
0110
0001
1010
0100
1100
0010
0111
1000
,
1101
0010
0011
0100
1100
0001
0011
0100
,
0101
1000
1010
0100
0110
0001
1001
0100
,
0011
0000
1000
0010
0100
0001
1000
0010
,
0100
0000
0001
0000
0000
0000
0000
0000
0001
1000
0010
0100
0001
0010
0100
1000
,
0002
0000
0000
0000
,
0000
0000
0000
0000
,
0000
0000
0000
0000
0000
0000
0000
0000
0000
0000
0000
0000
0000
0000
0000
0003
,
1000
0010
1000
0010
1000
0010
1000
0010
1000
0010
1000
0010
0002
0000
0000
0000
,
0000
0000
0000
0000
,
0000
0000
0000
0000
,
0000
0000
0000
0000
,
0003
0000
0000
0000
1000
0100
0010
0000
0001
0000
1000
0000
0100
0000
0010
0000
0001
0000
0000
0000
0001
0000
0000
0000
0001
0010
0100
1000
0001
0010
0100
1000
,
0001
0010
0100
1000
0001
0010
0100
1000
0001
0010
0100
1000
0001
0010
0100
1000
0001
0000
0001
0000
0002
0000
0000
0000
0000
0000
0000
0000
0000
0000
0000
0000
,
0000
0000
0000
0000
,
0000
0000
0000
0000
,
0003
0000
0000
0000
0000
0000
0000
0000
1100
0000
0000
0000
0000
0000
0000
0000
0110
0000
0000
0000
0000
0000
0000
0000
0011
0100
1000
0001
0010
0100
1000
0001
,
0010
0000
0100
0000
1000
0000
0000
0000
0011
0000
0000
0000
0000
0000
0000
0000
1000
0100
0010
0001
1000
0100
0010
0001
1000
0100
0010
0001
1000
0100
0010
0001
,
1000
0100
0010
0001
1000
0100
0010
0001
1000
0100
0010
0001
1000
0100
0010
0001
0000
0000
0000
0000
1100
0000
0000
0000
0000
0000
0000
0000
0000
0000
0000
0000
,
1100
1001
1010
0110
,
0011
1001
0101
0110
,
1100
0000
1001
0000
1010
0011
0101
1001
,
0011
1001
0101
1001
0101
0000
0011
1000
,
1010
0100
0110
0001
0011
0010
0101
1000
,
1001
0010
1010
0100
1100
0001
0110
0001
,
0101
0010
1100
1000
0110
1000
0011
0100
,
1010
0001
0110
1000
0011
1000
0101
0010
,
1001
0010
1100
0001
1010
0100
1001
0010
,
0101
1000
0011
1000
0110
0001
1100
0001
,
0110
1000
0011
1000
0101
0010
1100
0001
,
0110
1010
0011
1100
1010
0011
0110
1000
,
1100
0010
0011
0100
0110
1000
1100
0010
,
0011
0001
1010
1000
0101
0001
0011
0010
,
1100
0100
0110
1000
0101
0100
1010
0010
,
0011
0100
0110
1000
1100
0001
0011
0010
,
0101
0010
1001
0100
0110
1000
1010
0001
,
0011
0010
1100
0100
0101
1100
0110
0011
,
1010
0000
0100
0000
0001
0000
1000
0000
0010
0000
0100
0000
0001
0000
1000
0000
0010
0000
0100
0001
1000
0010
0100
0001
1000
0010
0100
0001
1000
0010
0100
0001
,
1000
0000
0010
0000
0100
1000
0000
0000
,
1110
0000
0000
0000
0000
0000
0000
0000
1000
0000
0100
0000
0010
0001
0100
0010
,
1000
0000
0001
0000
0100
0010
1000
0001
0100
0010
1000
0001
0100
0010
1000
0001
0100
0000
0000
0000
1011
0000
0000
0000
0000
0000
0000
0000
0000
0000
0000
0000
,
1000
0000
0000
0000
0100
0000
0000
0000
0010
0000
0001
0000
1000
0100
0010
0001
1000
0100
0010
0001
1000
0100
0010
0001
1000
0100
0010
0001
0000
0000
0000
0000
,
1110
0000
0000
0000
0000
0000
0000
0000
0000
0000
0001
0000
0010
0000
0100
1000
,
0000
0001
0010
0100
1000
0001
0010
0100
1000
0001
0010
0100
1000
0001
0010
0100
1000
0000
0000
0000
0111
0000
0000
0000
0000
0000
0000
0000
0000
0000
0000
0000
,
0000
0000
0000
0000
0100
0000
0000
0000
0010
0000
0000
0000
0001
0000
1000
0000
0100
0010
0001
1000
0100
0010
0001
1000
0100
0010
0001
1000
0100
0010
0001
0000
,
0000
0000
1011
0000
0000
0000
0000
0000
0000
0000
0001
0000
0010
0000
0100
1000
,
0001
0010
0100
1000
0001
0010
0100
1000
0001
0010
0100
1000
0001
0010
0100
1000
0000
0000
0000
0000
1101
0000
0000
0000
0000
0000
0000
0000
0000
0000
0000
0000
,
0000
0000
0000
0000
1000
0000
0000
0000
0100
0000
0000
0000
0010
0000
0001
0000
1000
0100
0010
0001
1000
0100
0010
0001
1000
0100
0010
0001
1000
0100
0010
0001
,
0000
1110
0000
0000
0000
0000
1000
0010
,
0100
0000
0001
1000
0010
0100
0001
1000
0010
0100
0001
1000
0010
0100
0001
1000
0010
0100
0001
1000
0000
0000
0000
0000
0111
0000
0000
0000
0000
0000
0000
0000
,
1010
0000
0000
0101
0000
0000
1010
0000
,
0000
0000
0000
0000
0101
0000
0000
0000
0000
0000
0000
0000
0000
0000
0000
0000
1100
0010
0001
1000
0100
0010
0001
1000
0100
0010
0001
0000
0000
0000
0000
0000
,
1100
0100
0011
0001
1010
0100
0110
1000
,
0011
0100
1001
0010
0101
1000
0011
0100
,
1101
1010
1001
1100
,
0110
0101
1010
0101
,
0011
0100
1100
0010
1010
1000
0101
0001
,
0101
0010
1010
0100
0101
1000
1011
0100
,
1101
0110
0011
1010
,
1100
0110
0011
1010
,
0101
0010
1001
0100
1010
0001
0101
1000
,
0110
0010
0101
1000
0011
0100
1001
0010
,
1011
0100
0101
0001
0110
1000
1001
0001
,
0011
0100
1010
0001
0110
1000
1100
0100
,
0110
0010
0011
1000
0011
0001
1100
0010
,
1001
0001
0110
0100
1100
0010
0111
1000
,
1011
0100
0111
0001
1010
0100
1100
0010
,
0110
1000
0011
0100
1001
0010
1100
0001
,
0110
1000
1011
0010
1001
1000
0111
0001
,
1100
0100
1011
0010
0110
0001
1110
0100
,
0011
1000
1011
0010
1100
0100
0111
0000
,
1010
1110
0011
1011
,
1100
0000
1101
0000
0011
0100
0111
0001
,
1100
0100
1011
1000
0101
0010
1101
0100
,
0011
1000
0111
0001
0110
1000
1110
0001
,
1100
0100
1011
1000
1001
0010
0111
0100
,
1010
0001
1011
0100
1110
0001
1101
0010
,
0111
1000
1011
0100
1110
0001
1101
0010
,
0111
1000
1011
0100
1110
0001
1101
0010
,
0111
1000
1011
0100
1110
0001
1101
0010
,
0111
1000
1011
0100
1110
0001
1110
1000
,
0111
0100
1011
0001
1110
1000
0111
0010
,
1101
0100
1011
0010
1101
1000
0111
0001
,
1110
0010
1101
0100
1011
0010
1101
1000
,
0111
0100
1011
0001
1110
1000
0111
0000
,
1000
0000
0100
0000
0010
0000
0000
0000
0010
0000
0100
0000
1000
0000
0000
0001
,
0000
0100
0000
0000
0000
1000
0000
0000
0010
0000
0000
0000
0000
0000
0101
0000
,
0000
1010
0000
0101
0000
0011
0000
0110
,
0000
1001
0000
0110
0000
1010
0000
1100
,
0010
0001
0000
0010
0000
0001
1000
0000
,
0010
0100
0000
0001
0000
0010
0000
1100
,
0000
0000
0011
0000
0000
1100
0000
0000
,
0011
0000
0000
0000
0000
0000
0000
0000
0000
0000
0000
0000
1100
0010
0001
1000
0100
0010
0001
1000
0100
0010
0001
1000
0100
0010
0001
0000
0000
0000
0000
0000
,
1100
0010
0001
0000
0100
0000
1000
0010
,
0000
0100
0001
0000
0100
0000
1000
0000
,
0101
0010
1001
0100
0011
1000
0110
0001
,
1100
0010
1001
0100
0011
1000
0101
0000
,
1010
0100
0010
0000
1000
0000
0100
0010
,
0000
0001
0100
0000
1000
0000
0010
0000
,
1100
0000
0001
0000
1101
0000
0010
0101
,
1000
0000
0000
0000
0000
0000
0000
0000
1011
0000
0000
0000
0000
0000
0000
0000
0100
0000
0000
0000
1010
0000
0000
0000
0001
0010
0100
1000
0001
0010
0100
1000
,
0001
0010
0100
1000
0000
0000
0000
0000
2021
0000
0000
0000
0000
0000
0000
0000
0000
0000
0000
0000
0000
0000
0000
0000
0000
0000
0000
0000
0000
0000
0000
0000
,
0000
0000
3030
0000
;
